Jump to content

I'm Groot

VIP
  • Content Count

    710
  • Joined

  • Days Won

    1

I'm Groot last won the day on March 30 2020

I'm Groot had the most liked content!

About I'm Groot

  • Rank
    ketta paiyan sir intha Groot

Recent Profile Visitors

7,159 profile views
  1. Love Story (Original Motion Picture Soundtrack) - 2021 - [Telugu Original UNTOUCHED FLAC (16bit-44.1kHz) - 150MB] WE ARE NOW AVAILABLE ON TELEGRAM CHANNEL JOIN FOR LATEST UPDATES General Complete name : 04 - Saranga Dariya.flac Format : FLAC Format/Info : Free Lossless Audio Codec File size : 27.8 MiB Duration : 3 min 50 s Overall bit rate mode : Variable Overall bit rate : 1 014 kb/s Album : Love Story Album/Performer : Pawan Ch Part : 1 Part/Total : 1 Track name : Saranga Dariya Track name/Position : 4 Track name/Total : 6 Performer : Mangli Composer : Pawan Ch Genre : Musiques du monde Recorded date : 2021-09-23 ISRC : INA092117450 Copyright : 2021 Aditya Music (India) Pvt Ltd 2021 Aditya Music (India) Pvt Ltd Cover : Yes Cover type : Cover (front) Cover MIME : image/jpeg UPC : 3616840342520 MEDIATYPE : epmini ITUNESADVISORY : 1 FileExtension_Invalid : flac Audio Format : FLAC Format/Info : Free Lossless Audio Codec Duration : 3 min 50 s Bit rate mode : Variable Bit rate : 1 011 kb/s Channel(s) : 2 channels Channel positions : Front: L R Sampling rate : 44.1 kHz Bit depth : 16 bits Stream size : 27.7 MiB (100%) SPEK WE ALSO AVAILABLE IN ANDROID APP! INSTALL NOW TO GET INSTANT UPDATES & BYPASS RESTRICTIONS www.TamilBlasters.vin - Love Story (Original Motion Picture Soundtrack) - 2021 - [Telugu Original UNTOUCHED FLAC (16bit-44.1kHz) - 150MB] Note : Digital DL Original FLAC Source : QOBUZ Share with proper credit's Quality Speaks
  2. Mazhai (From "Yennanga Sir Unga Sattam") - 2021 - [Tamil Original UNTOUCHED FLAC (24bit-96.0kHz) - 81MB/MP3(320KB/s) - 10MB] WE ARE NOW AVAILABLE ON TELEGRAM CHANNEL JOIN FOR LATEST UPDATES No WM's | No URL Tag's Untouched Crystal Clear Audio's General Complete name : 01 - Mazhai (From Yennanga Sir Unga Sattam).flac Format : FLAC Format/Info : Free Lossless Audio Codec File size : 80.3 MiB Duration : 3 min 48 s Overall bit rate mode : Variable Overall bit rate : 2 940 kb/s Album : Mazhai Album/Performer : Guna Balasubramanian Part : 1 Part/Total : 1 Track name : Mazhai (From "Yennanga Sir Unga Sattam") Track name/Position : 1 Track name/Total : 1 Performer : Guna Balasubramanian Composer : Guna Balasubramanian Genre : Musiques du monde Recorded date : 2021-10-21 ISRC : INT202102849 Copyright : 2021 Think Music 2021 Think Music Cover : Yes Cover type : Cover (front) Cover MIME : image/jpeg UPC : 3616841121674 MEDIATYPE : single ITUNESADVISORY : 1 Audio Format : FLAC Format/Info : Free Lossless Audio Codec Duration : 3 min 48 s Bit rate mode : Variable Bit rate : 2 936 kb/s Channel(s) : 2 channels Channel layout : L R Sampling rate : 96.0 kHz Bit depth : 24 bits Compression mode : Lossless Stream size : 80.1 MiB (100%) SPEK FLAC MP3 WE ALSO AVAILABLE IN ANDROID APP! INSTALL NOW TO GET INSTANT UPDATES & BYPASS RESTRICTIONS FLAC www.TamilBlasters.vin - Mazhai (From "Yennanga Sir Unga Sattam") - 2021 - [Tamil Original UNTOUCHED FLAC (24bit-96.0kHz) - 81MB] MP3(320KB/s) www.TamilBlasters.vin - Mazhai ("From Yennanga Sir Unga Sattam") - 2021 - [Tamil Original UNTOUCHED MP3(320KB/s) - 10MB] Note : Digital DL Original FLAC/MP3 Source : QOBUZ Share with proper credit's Quality Speaks
  3. Nenjae Nenjae (From "Arun Vijayin Borrder") - 2021 - [Tamil Original UNTOUCHED FLAC (24bit-96.0kHz) - 85MB/MP3(320KB/s) - 10MB] WE ARE NOW AVAILABLE ON TELEGRAM CHANNEL JOIN FOR LATEST UPDATES No WM's | No URL Tag's Untouched Crystal Clear Audio's Complete name : 01 - Nenjae Nenjae.flac Format : FLAC Format/Info : Free Lossless Audio Codec File size : 84.2 MiB Duration : 4 min 6 s Overall bit rate mode : Variable Overall bit rate : 2 862 kb/s Album : Nenjae Nenjae Album/Performer : Sam C.S. Part : 1 Part/Total : 1 Track name : Nenjae Nenjae (From "Arun Vijayin Borrder") Track name/Position : 1 Track name/Total : 1 Performer : Sam C.S. Composer : Sam C.S. Genre : Musiques du monde Recorded date : 2021-10-20 ISRC : INT202102848 Copyright : 2021 Think Music 2021 Think Music Cover : Yes Cover type : Cover (front) Cover MIME : image/jpeg UPC : 3616840975384 MEDIATYPE : single ITUNESADVISORY : 1 Audio Format : FLAC Format/Info : Free Lossless Audio Codec Duration : 4 min 6 s Bit rate mode : Variable Bit rate : 2 859 kb/s Channel(s) : 2 channels Channel layout : L R Sampling rate : 96.0 kHz Bit depth : 24 bits Compression mode : Lossless Stream size : 84.1 MiB (100%) SPEK WE ALSO AVAILABLE IN ANDROID APP! INSTALL NOW TO GET INSTANT UPDATES & BYPASS RESTRICTIONS FLAC www.TamilBlasters.vin - Nenjae Nenjae (From "Arun Vijayin Borrder") - 2021 - [Tamil Original UNTOUCHED FLAC (24bit-96.0kHz) - 85MB] MP3(320KB/s) www.TamilBlasters.vin - Nenjae Nenjae (From "Arun Vijayin Borrder") - 2021 - [Tamil Original UNTOUCHED MP3(320KB/s) - 10MB] Note : Digital DL Original FLAC/MP3 Source : QOBUZ Share with proper credit's Quality Speaks
  4. Kanda Sasti Kavasam - [Tamil Original UNTOUCHED FLAC (24bit-96.0kHz) - 426MB] WE ARE NOW AVAILABLE ON TELEGRAM CHANNEL JOIN FOR LATEST UPDATES General Complete name : Kanda Sasti Kavasam.flac Format : FLAC Format/Info : Free Lossless Audio Codec File size : 426 MiB Duration : 21 min 55 s Overall bit rate mode : Variable Overall bit rate : 2 719 kb/s Album : Kandha Sasti Kavasam Album/Performer : D.V. Ramani Part : 1 Part/Total : 1 Track name : Kanda Sasti Kavasam Track name/Position : 1 Track name/Total : 1 Performer : Rajalakshmi Composer : D.V. Ramani Genre : Bandes originales de films Recorded date : 2019 ISRC : IND291818778 Copyright : 2019 Divo TV Private Limited 2019 Divo TV Private Limited Cover : Yes Cover type : Cover (front) Cover MIME : image/jpeg ITUNESADVISORY : 1 MEDIATYPE : album UPC : 0718598844264 Audio Format : FLAC Format/Info : Free Lossless Audio Codec Duration : 21 min 55 s Bit rate mode : Variable Bit rate : 2 718 kb/s Channel(s) : 2 channels Channel layout : L R Sampling rate : 96.0 kHz Bit depth : 24 bits Compression mode : Lossless Stream size : 426 MiB (100%) Language : Tamil SPEK WE ALSO AVAILABLE IN ANDROID APP! INSTALL NOW TO GET INSTANT UPDATES & BYPASS RESTRICTIONS www.TamilBlasters.vin - Kanda Sasti Kavasam - [Tamil Original UNTOUCHED FLAC (24bit-96.0kHz) - 426MB].flac Note : Digital DL Original FLAC Source : QOBUZ Share with proper credit's
  5. Oh Manapenne (Original Motion Picture Soundtrack) (2021) - [Tamil Original UNTOUCHED FLAC (24bit-48.0kHz) - 243MB] WE ARE NOW AVAILABLE ON TELEGRAM CHANNEL JOIN FOR LATEST UPDATES General Complete name : 05 - Bodhai Kaname.flac Format : FLAC Format/Info : Free Lossless Audio Codec File size : 51.8 MiB Duration : 4 min 21 s Overall bit rate mode : Variable Overall bit rate : 1 659 kb/s Album : Oh Manapenne Album/Performer : Vishal Chandrashekhar Part : 1 Part/Total : 1 Track name : Bodhai Kaname Track name/Position : 5 Track name/Total : 6 Performer : Vishal Chandrashekhar Composer : Vishal Chandrashekhar Genre : Musiques du monde Recorded date : 2021-10-18 ISRC : INT202102748 Copyright : 2021 Think Music 2021 Think Music Cover : Yes Cover type : Cover (front) Cover MIME : image/jpeg UPC : 8906035373930 MEDIATYPE : epmini ITUNESADVISORY : 1 Audio Format : FLAC Format/Info : Free Lossless Audio Codec Duration : 4 min 21 s Bit rate mode : Variable Bit rate : 1 657 kb/s Channel(s) : 2 channels Channel layout : L R Sampling rate : 48.0 kHz Bit depth : 24 bits Compression mode : Lossless Stream size : 51.7 MiB (100%) SPEK Number Of Tracks : 06 01 - Oh Manapenne 02 - Lazy Song 03 - Nee Yenadharuginil Nee 04 - Aao Ji Aao 05 - Bodhai Kaname 06 - Sakiye WE ALSO AVAILABLE IN ANDROID APP! INSTALL NOW TO GET INSTANT UPDATES & BYPASS RESTRICTIONS www.TamilBlasters.vin - Oh Manapenne (Original Motion Picture Soundtrack) (2021) - [Tamil Original UNTOUCHED FLAC (24bit-48.0kHz) - 243MB] Note : Digital DL Original FLAC Source : QOBUZ Share with proper credit's
  6. Doctor (Original Background Score) (2021) - [Tamil Original UNTOUCHED FLAC (24bit-48.0kHz) - 202MB] WE ARE NOW AVAILABLE ON TELEGRAM CHANNEL JOIN FOR LATEST UPDATES General Complete name : 01 - Doctor Theme (Background Score).flac Format : FLAC Format/Info : Free Lossless Audio Codec File size : 8.77 MiB Duration : 43 s 125 ms Overall bit rate mode : Variable Overall bit rate : 1 706 kb/s Album : Doctor Album/Performer : Anirudh Ravichander Part : 1 Part/Total : 1 Track name : Doctor Theme (Background Score) Track name/Position : 1 Track name/Total : 10 Performer : Anirudh Ravichander Composer : Anirudh Ravichander Genre : Bandes originales de films Recorded date : 2021-10-18 ISRC : INS172104246 Copyright : (P) 2021 Sony Music Entertainment India Pvt. Ltd. Cover : Yes Cover type : Cover (front) Cover MIME : image/jpeg UPC : 0886449675890 MEDIATYPE : album ITUNESADVISORY : 1 Audio Format : FLAC Format/Info : Free Lossless Audio Codec Duration : 43 s 125 ms Bit rate mode : Variable Bit rate : 1 690 kb/s Channel(s) : 2 channels Channel layout : L R Sampling rate : 48.0 kHz Bit depth : 24 bits Compression mode : Lossless Stream size : 8.69 MiB (99%) SPEK Number Of Tracks : 10 1. Doctor Theme 2. The Family 3. Varun Intro 4. Hand Game 5. The Twins 6. Metro Train Fight 7. Varun Fights 8. Terry theme 9. Daughter Feels 10. Climax Fight WE ALSO AVAILABLE IN ANDROID APP! INSTALL NOW TO GET INSTANT UPDATES & BYPASS RESTRICTIONS www.TamilBlasters.vin - Doctor (Original Background Score) (2021) - [Tamil Original UNTOUCHED FLAC (24bit-48.0kHz) - 202MB Note : Digital DL Original FLAC Source : QOBUZ Share with proper credit's
  7. Power (From "Jai Bhim") (2021) - [Tamil Original UNTOUCHED FLAC (24bit-48.0kHz) - 45MB] General Complete name : 01 - Power (From "Jai Bhim").flac Format : FLAC Format/Info : Free Lossless Audio Codec File size : 43.9 MiB Duration : 3 min 38 s Overall bit rate mode : Variable Overall bit rate : 1 682 kb/s Album : Power Album/Performer : Sean Roldan Part : 1 Part/Total : 1 Track name : Power (From "Jai Bhim") Track name/Position : 1 Track name/Total : 1 Performer : Sean Roldan Composer : Sean Roldan Genre : Bandes originales de films Recorded date : 2021-10-18 ISRC : INS172104256 Copyright : (P) 2021 Sony Music Entertainment India Pvt. Ltd. Cover : Yes Cover type : Cover (front) Cover MIME : image/jpeg UPC : 0886449678051 MEDIATYPE : single ITUNESADVISORY : 1 Audio Format : FLAC Format/Info : Free Lossless Audio Codec Duration : 3 min 38 s Bit rate mode : Variable Bit rate : 1 679 kb/s Channel(s) : 2 channels Channel layout : L R Sampling rate : 48.0 kHz Bit depth : 24 bits Compression mode : Lossless Stream size : 43.8 MiB (100%) SPEK WE ALSO AVAILABLE IN ANDROID APP! INSTALL NOW TO GET INSTANT UPDATES & BYPASS RESTRICTIONS www.TamilBlasters.vin -Power (From "Jai Bhim") (2021) - [Tamil Original UNTOUCHED FLAC (24bit-48.0kHz) - 45MB] Note : Digital DL Original FLAC Source : QOBUZ Share with proper credit's
  8. Marudhaani (From Annaatthe) (2021) - [Tamil Original UNTOUCHED FLAC (24bit-96.0kHz) - 100MB] WE ARE NOW AVAILABLE ON TELEGRAM CHANNEL JOIN FOR LATEST UPDATES General Complete name : 01 - Marudhaani (From Annaatthe).flac Format : FLAC Format/Info : Free Lossless Audio Codec File size : 99.1 MiB Duration : 4 min 30 s Overall bit rate mode : Variable Overall bit rate : 3 077 kb/s Album : Marudhaani (From "Annaatthe") Album/Performer : Various Artists Part : 1 Part/Total : 1 Track name : Marudhaani (From "Annaatthe") Track name/Position : 1 Track name/Total : 1 Performer : D. Imman Composer : D. Imman Genre : Musiques du monde Recorded date : 2021-10-18 ISRC : QMDA62171283 Copyright : (C) 2021 Sun Pictures (P) 2021 Sun Pictures Cover : Yes Cover type : Cover (front) Cover MIME : image/jpeg UPC : 0196292672916 MEDIATYPE : single ITUNESADVISORY : 1 Audio Format : FLAC Format/Info : Free Lossless Audio Codec Duration : 4 min 30 s Bit rate mode : Variable Bit rate : 3 074 kb/s Channel(s) : 2 channels Channel layout : L R Sampling rate : 96.0 kHz Bit depth : 24 bits Compression mode : Lossless Stream size : 99.0 MiB (100%) SPEK WE ALSO AVAILABLE IN ANDROID APP! INSTALL NOW TO GET INSTANT UPDATES & BYPASS RESTRICTIONS www.TamilBlasters.vin - Marudhaani (From Annaatthe) (2021) - [Tamil Original UNTOUCHED FLAC (24bit-96.0kHz) - 100MB] Note : Digital DL Original FLAC Source : QOBUZ Share with proper credit's
  9. Soorarai Pottru (Original Background Score) (2020) - [Tamil Original UNTOUCHED FLAC (24bit-48.0kHz) - 273MB] WE ARE NOW AVAILABLE ON TELEGRAM CHANNEL JOIN FOR LATEST UPDATES General Complete name : 03 - Antha Flight Oda Owner Da.flac Format : FLAC Format/Info : Free Lossless Audio Codec File size : 48.7 MiB Duration : 4 min 11 s Overall bit rate mode : Variable Overall bit rate : 1 625 kb/s Album : Soorarai Pottru Album/Performer : G.V. Prakash Kumar Part : 1 Part/Total : 1 Track name : Antha Flight Oda Owner Da (Background Score) Track name/Position : 3 Track name/Total : 13 Performer : G.V. Prakash Kumar Composer : G.V. Prakash Kumar Genre : Bandes originales de films Recorded date : 2020-12-18 ISRC : INS172004621 Copyright : (P) 2020 Sony Music Entertainment India Pvt. Ltd. Cover : Yes Cover type : Cover (front) Cover MIME : image/jpeg UPC : 0886448998594 MEDIATYPE : album ITUNESADVISORY : 1 Audio Format : FLAC Format/Info : Free Lossless Audio Codec Duration : 4 min 11 s Bit rate mode : Variable Bit rate : 1 623 kb/s Channel(s) : 2 channels Channel layout : L R Sampling rate : 48.0 kHz Bit depth : 24 bits Compression mode : Lossless Stream size : 48.7 MiB (100%) SPEK Number Of Tracks : 13 01 - A Sparrow Becomes an Eagle 02 - Airport Scene 03 - Antha Flight Oda Owner Da 04 - Break the Cost and Cast Barrier 05 - Fathers Death 06 - Hope and Triumph 07 - Intermission 08 - Military Training 09 - Pilot Officer Nedumaran 10 - Presentaion at Udipi Hotel 11 - Radio Interview 12 - Rebirth 13 - We're Here for a Reason WE ALSO AVAILABLE IN ANDROID APP! INSTALL NOW TO GET INSTANT UPDATES & BYPASS RESTRICTIONS www.TamilBlasters.vin - Soorarai Pottru (Original Background Score) (2020) - [Tamil Original UNTOUCHED FLAC (24bit-48.0kHz) - 273MB] Note : Digital DL Original FLAC Source : QOBUZ Share with proper credit's
  10. Yaathi Yaathi (2021) - [Tamil Original UNTOUCHED FLAC (24bit-48.0kHz) - 50MB] WE ARE NOW AVAILABLE ON TELEGRAM CHANNEL JOIN FOR LATEST UPDATES General Complete name : www.TamilBlasters.vin - Yaathi Yaathi (2021) - [Tamil Original UNTOUCHED FLAC (24bit-48.0kHz) - 50MB].flac Format : FLAC Format/Info : Free Lossless Audio Codec File size : 49.1 MiB Duration : 3 min 59 s Overall bit rate mode : Variable Overall bit rate : 1 717 kb/s Album : Yaathi Yaathi Album/Performer : Abhishek C S Part : 1 Part/Total : 1 Track name : Yaathi Yaathi Track name/Position : 1 Track name/Total : 1 Performer : Abhishek C S Composer : Abhishek C S Genre : Musique indienne Recorded date : 2021-10-14 ISRC : INS172104011 Copyright : (P) 2021 Sony Music Entertainment India Pvt. Ltd. Cover : Yes Cover type : Cover (front) Cover MIME : image/jpeg UPC : 0886449603251 MEDIATYPE : single ITUNESADVISORY : 1 Audio Format : FLAC Format/Info : Free Lossless Audio Codec Duration : 3 min 59 s Bit rate mode : Variable Bit rate : 1 714 kb/s Channel(s) : 2 channels Channel layout : L R Sampling rate : 48.0 kHz Bit depth : 24 bits Compression mode : Lossless Stream size : 49.0 MiB (100%) SPEK WE ALSO AVAILABLE IN ANDROID APP! INSTALL NOW TO GET INSTANT UPDATES & BYPASS RESTRICTIONS www.TamilBlasters.vin - Yaathi Yaathi (2021) - [Tamil Original UNTOUCHED FLAC (24bit-48.0kHz) - 50MB].flac Note : Digital DL Original FLAC Source : QOBUZ Share with proper credit's
  11. Doctor (Original Motion Picture Soundtrack) - 2021 - [Tamil Original UNTOUCHED FLAC (24bit-96.0kHz) - 268MB] WE ARE NOW AVAILABLE ON TELEGRAM CHANNEL JOIN FOR LATEST UPDATES General Complete name : 01 - Chellamma.flac Format : FLAC Format/Info : Free Lossless Audio Codec File size : 84.6 MiB Duration : 3 min 56 s Overall bit rate mode : Variable Overall bit rate : 2 999 kb/s Album : Chellamma Album/Performer : Anirudh Ravichander Part : 1 Part/Total : 1 Track name : Chellamma (From "Doctor") Track name/Position : 1 Track name/Total : 1 Performer : Anirudh Ravichander Composer : Anirudh Ravichander Genre : Bandes originales de films Recorded date : 2020-07-16 ISRC : INS172002392 Copyright : (P) 2020 Sony Music Entertainment India Pvt. Ltd. Cover : Yes Cover type : Cover (front) Cover MIME : image/jpeg UPC : 0886448649489 MEDIATYPE : single ITUNESADVISORY : 1 Audio Format : FLAC Format/Info : Free Lossless Audio Codec Duration : 3 min 56 s Bit rate mode : Variable Bit rate : 2 995 kb/s Channel(s) : 2 channels Channel layout : L R Sampling rate : 96.0 kHz Bit depth : 24 bits Compression mode : Lossless Stream size : 84.4 MiB (100%) SPEK Number Of Tracks : 04 WE ALSO AVAILABLE IN ANDROID APP! INSTALL NOW TO GET INSTANT UPDATES & BYPASS RESTRICTIONS www.TamilBlasters.vin - Doctor (Original Motion Picture Soundtrack) - 2021 - [Tamil Original UNTOUCHED FLAC (24bit-96.0kHz) - 268MB] Note : Digital DL Original FLAC Source : QOBUZ Share with proper credit's
×
×
  • Create New...